team army-of-killer  Index du Forum
team army-of-killer
Team sur Ps3 Modern Warfare 2
 
team army-of-killer  Index du ForumFAQRechercherS’enregistrerConnexion

:: 1080p Ac3 2014 ::

 
Poster un nouveau sujet   Répondre au sujet    team army-of-killer Index du Forum -> ///Bar\\\ -> Des réflexions ??
Sujet précédent :: Sujet suivant  
Auteur Message
hanbran


Hors ligne

Inscrit le: 04 Avr 2016
Messages: 79
Localisation: Lyon

MessagePosté le: Jeu 2 Juin - 19:28 (2016)    Sujet du message: 1080p Ac3 2014 Répondre en citant




1080p Ac3 2014 > bit.ly/1t4cSbu







1080p Ac3 2014


10cf746e54
ROGERWATERSTHEWALL - ID18 - Danish.sub - 2.45 MB. Leechers : 936. Screenshot: Technical Data: Format : Matroska Format version : Version 2 File size : 2.72 GiB Duration : 1h 55mn Overall bit rate : 3 386 Kbps Movie name : Chef (2014) Rip by gixerk9 [AT-Team] Writing application : mkvmerge v5.7.0 ('The Whirlwind') built on Jul 8 2012 20:08:51 Writing library : libebml v1.2.3 + libmatroska v1.3.0 Video ID : 1 Format : AVC Format/Info : Advanced Video Codec Format profile : HighL4.1 Format settings, CABAC : Yes Format settings, ReFrames : 4 frames Codec ID : VMPEG4/ISO/AVC Duration : 1h 55mn Bit rate : 3 000 Kbps Width : 1 920 pixels Height : 800 pixels Display aspect ratio : 16:9 Frame rate mode : Constant Frame rate : 23.976 fps Standard : Component Color space : YUV Chroma subsampling : 4:2:0 Bit depth : 8 bits Scan type : Progressive Bits/(Pixel*Frame) : 0.081 Stream size : 2.36 GiB (87%) Writing library : x264 core 144 r2525 Default : Yes Forced : No Color range : Limited Audio ID : 2 Format : AC-3 Format/Info : Audio Coding 3 Mode extension : CM (complete main) Format settings, Endianness : Big Codec ID : AAC3 Duration : 1h 55mn Bit rate mode : Constant Bit rate : 384 Kbps Channel(s) : 6 channels Channel positions : Front: L C R, Side: L R, LFE Sampling rate : 48.0 KHz Bit depth : 16 bits Compression mode : Lossy Stream size : 316 MiB (11%) Title : English AC3 5.1 Language : English Default : Yes Forced : No Text ID : 3 Format : UTF-8 Codec ID : STEXT/UTF8 Codec ID/Info : UTF-8 Plain Text Title : Napisy PL Language : Polish Default : No Forced : No . ROGERWATERSTHEWALL - ID16 - Chinese.sub - 2.01 MB. Roger.Waters.The.Wall.2014.1080p.BluRay.AC3.x264-ETRG.mkv0143.png - 1.55 MB.

BDINFO.txt - 4.35 KB. Back home to his wife and kids after four tours of duty, however, Chris finds that it is the war he can't leave behind. ROGERWATERSTHEWALL - ID9 - Portuguese.idx - 18.67 KB. With Percy's tech savvy and Martin's enthusiasm, Carl finds that he is creating a traveling sensation on the way home. Fury 2014 720p HDRiP XVID AC3 MAJESTIC . Roger.Waters.The.Wall.2014.1080p.BluRay.AC3.x264-ETRG.mkv0031.png - 1.43 MB. ROGERWATERSTHEWALL - ID25 - Russian.sub - 2.52 MB. ROGERWATERSTHEWALL - ID26 - Chinese.sub - 2.11 MB. ROGERWATERSTHEWALL - ID27 - Swedish.sub - 2.44 MB. ROGERWATERSTHEWALL - ID24 - Polish.idx - 18.36 KB.

from vegas to macau 720p brripbbc easy cookkeeper lost causes nldoctor who seasondr house s07jessi rogers jamesmagical girl 720pseal team eightroun table knightsPara Sempre vencedor


Revenir en haut
Publicité






MessagePosté le: Jeu 2 Juin - 19:28 (2016)    Sujet du message: Publicité

PublicitéSupprimer les publicités ?
Revenir en haut
Montrer les messages depuis:   
Poster un nouveau sujet   Répondre au sujet    team army-of-killer Index du Forum -> ///Bar\\\ -> Des réflexions ?? Toutes les heures sont au format GMT + 2 Heures
Page 1 sur 1

 
Sauter vers:  

Index | Panneau d’administration | creer un forum | Forum gratuit d’entraide | Annuaire des forums gratuits | Signaler une violation | Conditions générales d'utilisation
WorkStation[fusion] © theme by larme d'ange 2006
Powered by phpBB © 2001, 2005 phpBB Group
Traduction par : phpBB-fr.com